<svg xmlns="http://www.w3.org/2000/svg">
<defs>
<font
       horiz-adv-x="1024"
       id="font5990"
       horiz-origin-x="0"
       horiz-origin-y="0"
       vert-origin-x="45"
       vert-origin-y="90"
       vert-adv-y="90"><font-face
         units-per-em="1024"
         id="font-face5992"
         font-family="BTM_font" /><missing-glyph
         d="m 1.9387452,1023.4708 -0.4960075,-0.2063 -0.61600098,-0.8715 0.24826238,-3.2047 1.0044281,-0.48 h 0.591692 l 0.5839338,0.6983 0.095685,1.7606 0.03517,0.081 0.020689,0.4613 -0.2317116,0.9082 -0.5316954,0.6807 -0.099822,0.06 z m 0.029998,-0.094 0.2710198,-0.041 -0.3227411,-0.1427 -0.2627444,0.05 z m -0.4716985,-0.2027 0.380669,-0.07 0.099305,-0.962 -1.01373798,0.2669 z m 1.1420075,-0.089 0.5379018,-1.2517 -0.4075642,-0.3103 -0.5978986,1.353 z m -1.71507939,-0.7655 1.05511509,-0.2772 0.051721,-3.2062 -0.865815,0.4241 z m 1.15959219,-0.39 0.572038,-0.7665 -0.051722,-2.3523 H 2.1404584 Z m 1.1440758,-1.2382 -0.067238,-1.2439 -0.4592857,-0.5379 0.037757,1.653 0.2575721,-0.2255 0.1375787,0.1288 z"
         id="missing-glyph5994" /><glyph
         glyph-name="L"
         id="glyph5996"
         d="m 1.9387452,1023.4708 -0.4960075,-0.2063 -0.61600098,-0.8715 0.24826238,-3.2047 1.0044281,-0.48 h 0.591692 l 0.5839338,0.6983 0.095685,1.7606 0.03517,0.081 0.020689,0.4613 -0.2317116,0.9082 -0.5316954,0.6807 -0.099822,0.06 z m 0.029998,-0.094 0.2710198,-0.041 -0.3227411,-0.1427 -0.2627444,0.05 z m -0.4716985,-0.2027 0.380669,-0.07 0.099305,-0.962 -1.01373798,0.2669 z m 1.1420075,-0.089 0.5379018,-1.2517 -0.4075642,-0.3103 -0.5978986,1.353 z m -1.71507939,-0.7655 1.05511509,-0.2772 0.051721,-3.2062 -0.865815,0.4241 z m 1.15959219,-0.39 0.572038,-0.7665 -0.051722,-2.3523 H 2.1404584 Z m 1.1440758,-1.2382 -0.067238,-1.2439 -0.4592857,-0.5379 0.037757,1.653 0.2575721,-0.2255 0.1375787,0.1288 z" /><glyph
         glyph-name="S"
         id="glyph5998" /><glyph
         glyph-name="A"
         id="glyph6000" /><glyph
         glyph-name="O"
         id="glyph6002" /><glyph
         glyph-name="K"
         id="glyph6004" /></font><font
       horiz-adv-x="1024"
       id="font5990-7"
       horiz-origin-x="0"
       horiz-origin-y="0"
       vert-origin-x="45"
       vert-origin-y="90"
       vert-adv-y="90"><font-face
         units-per-em="1024"
         id="font-face5992-7"
         font-family="BTM_font" /><missing-glyph
         d="m 1.9387452,1023.4708 -0.4960075,-0.2063 -0.61600098,-0.8715 0.24826238,-3.2047 1.0044281,-0.48 h 0.591692 l 0.5839338,0.6983 0.095685,1.7606 0.03517,0.081 0.020689,0.4613 -0.2317116,0.9082 -0.5316954,0.6807 -0.099822,0.06 z m 0.029998,-0.094 0.2710198,-0.041 -0.3227411,-0.1427 -0.2627444,0.05 z m -0.4716985,-0.2027 0.380669,-0.07 0.099305,-0.962 -1.01373798,0.2669 z m 1.1420075,-0.089 0.5379018,-1.2517 -0.4075642,-0.3103 -0.5978986,1.353 z m -1.71507939,-0.7655 1.05511509,-0.2772 0.051721,-3.2062 -0.865815,0.4241 z m 1.15959219,-0.39 0.572038,-0.7665 -0.051722,-2.3523 H 2.1404584 Z m 1.1440758,-1.2382 -0.067238,-1.2439 -0.4592857,-0.5379 0.037757,1.653 0.2575721,-0.2255 0.1375787,0.1288 z"
         id="missing-glyph5994-4" /><glyph
         glyph-name="L"
         id="glyph5996-5"
         d="m 1.9387452,1023.4708 -0.4960075,-0.2063 -0.61600098,-0.8715 0.24826238,-3.2047 1.0044281,-0.48 h 0.591692 l 0.5839338,0.6983 0.095685,1.7606 0.03517,0.081 0.020689,0.4613 -0.2317116,0.9082 -0.5316954,0.6807 -0.099822,0.06 z m 0.029998,-0.094 0.2710198,-0.041 -0.3227411,-0.1427 -0.2627444,0.05 z m -0.4716985,-0.2027 0.380669,-0.07 0.099305,-0.962 -1.01373798,0.2669 z m 1.1420075,-0.089 0.5379018,-1.2517 -0.4075642,-0.3103 -0.5978986,1.353 z m -1.71507939,-0.7655 1.05511509,-0.2772 0.051721,-3.2062 -0.865815,0.4241 z m 1.15959219,-0.39 0.572038,-0.7665 -0.051722,-2.3523 H 2.1404584 Z m 1.1440758,-1.2382 -0.067238,-1.2439 -0.4592857,-0.5379 0.037757,1.653 0.2575721,-0.2255 0.1375787,0.1288 z" /><glyph
         glyph-name="S"
         id="glyph5998-2" /><glyph
         glyph-name="A"
         id="glyph6000-8" /><glyph
         glyph-name="O"
         id="glyph6002-0" /><glyph
         glyph-name="K"
         id="glyph6004-0" /></font><linearGradient
       id="linearGradient1402"><stop
         style="stop-color:#808080;stop-opacity:1;"
         offset="0"
         id="stop1398" /><stop
         style="stop-color:#808080;stop-opacity:0;"
         offset="1"
         id="stop1400" /></linearGradient><linearGradient
       id="linearGradient2818"><stop
         style="stop-color:#ba5400;stop-opacity:1"
         offset="0"
         id="stop2814" /><stop
         style="stop-color:#863e00;stop-opacity:1"
         offset="1"
         id="stop2816" /></linearGradient><linearGradient
       id="linearGradient2330"><stop
         style="stop-color:#ffcc00;stop-opacity:1;"
         offset="0"
         id="stop2326" /><stop
         id="stop2334"
         offset="0.30000001"
         style="stop-color:#ffffed;stop-opacity:1" /><stop
         style="stop-color:#ffb200;stop-opacity:1;"
         offset="0.58000213"
         id="stop2336" /><stop
         style="stop-color:#ffe200;stop-opacity:1"
         offset="1"
         id="stop2328" /></linearGradient><linearGradient
       id="linearGradient1462-7"><stop
         style="stop-color:#cccccc;stop-opacity:1;"
         offset="0"
         id="stop1458" /><stop
         style="stop-color:#ffffff;stop-opacity:1"
         offset="1"
         id="stop1460" /></linearGradient><font
       vert-adv-y="90"
       vert-origin-y="90"
       vert-origin-x="45"
       horiz-origin-y="0"
       horiz-origin-x="0"
       id="font5990-6"
       horiz-adv-x="1024"><font-face
         font-family="BTM_font"
         id="font-face5992-75"
         units-per-em="1024" /><missing-glyph
         id="missing-glyph5994-3"
         d="m 1.9387452,1023.4708 -0.4960075,-0.2063 -0.61600098,-0.8715 0.24826238,-3.2047 1.0044281,-0.48 h 0.591692 l 0.5839338,0.6983 0.095685,1.7606 0.03517,0.081 0.020689,0.4613 -0.2317116,0.9082 -0.5316954,0.6807 -0.099822,0.06 z m 0.029998,-0.094 0.2710198,-0.041 -0.3227411,-0.1427 -0.2627444,0.05 z m -0.4716985,-0.2027 0.380669,-0.07 0.099305,-0.962 -1.01373798,0.2669 z m 1.1420075,-0.089 0.5379018,-1.2517 -0.4075642,-0.3103 -0.5978986,1.353 z m -1.71507939,-0.7655 1.05511509,-0.2772 0.051721,-3.2062 -0.865815,0.4241 z m 1.15959219,-0.39 0.572038,-0.7665 -0.051722,-2.3523 H 2.1404584 Z m 1.1440758,-1.2382 -0.067238,-1.2439 -0.4592857,-0.5379 0.037757,1.653 0.2575721,-0.2255 0.1375787,0.1288 z" /><glyph
         d="m 1.9387452,1023.4708 -0.4960075,-0.2063 -0.61600098,-0.8715 0.24826238,-3.2047 1.0044281,-0.48 h 0.591692 l 0.5839338,0.6983 0.095685,1.7606 0.03517,0.081 0.020689,0.4613 -0.2317116,0.9082 -0.5316954,0.6807 -0.099822,0.06 z m 0.029998,-0.094 0.2710198,-0.041 -0.3227411,-0.1427 -0.2627444,0.05 z m -0.4716985,-0.2027 0.380669,-0.07 0.099305,-0.962 -1.01373798,0.2669 z m 1.1420075,-0.089 0.5379018,-1.2517 -0.4075642,-0.3103 -0.5978986,1.353 z m -1.71507939,-0.7655 1.05511509,-0.2772 0.051721,-3.2062 -0.865815,0.4241 z m 1.15959219,-0.39 0.572038,-0.7665 -0.051722,-2.3523 H 2.1404584 Z m 1.1440758,-1.2382 -0.067238,-1.2439 -0.4592857,-0.5379 0.037757,1.653 0.2575721,-0.2255 0.1375787,0.1288 z"
         id="glyph5996-56"
         glyph-name="L" /><glyph
         id="glyph5998-29"
         glyph-name="S" /><glyph
         id="glyph6000-1"
         glyph-name="A" /><glyph
         id="glyph6002-2"
         glyph-name="O" /><glyph
         id="glyph6004-7"
         glyph-name="K" /></font><font
       vert-adv-y="90"
       vert-origin-y="90"
       vert-origin-x="45"
       horiz-origin-y="0"
       horiz-origin-x="0"
       id="font5990-4"
       horiz-adv-x="1024"><font-face
         font-family="BTM_font"
         id="font-face5992-4"
         units-per-em="1024" /><missing-glyph
         id="missing-glyph5994-6"
         d="m 1.9387452,1023.4708 -0.4960075,-0.2063 -0.61600098,-0.8715 0.24826238,-3.2047 1.0044281,-0.48 h 0.591692 l 0.5839338,0.6983 0.095685,1.7606 0.03517,0.081 0.020689,0.4613 -0.2317116,0.9082 -0.5316954,0.6807 -0.099822,0.06 z m 0.029998,-0.094 0.2710198,-0.041 -0.3227411,-0.1427 -0.2627444,0.05 z m -0.4716985,-0.2027 0.380669,-0.07 0.099305,-0.962 -1.01373798,0.2669 z m 1.1420075,-0.089 0.5379018,-1.2517 -0.4075642,-0.3103 -0.5978986,1.353 z m -1.71507939,-0.7655 1.05511509,-0.2772 0.051721,-3.2062 -0.865815,0.4241 z m 1.15959219,-0.39 0.572038,-0.7665 -0.051722,-2.3523 H 2.1404584 Z m 1.1440758,-1.2382 -0.067238,-1.2439 -0.4592857,-0.5379 0.037757,1.653 0.2575721,-0.2255 0.1375787,0.1288 z" /><glyph
         d="m 1.9387452,1023.4708 -0.4960075,-0.2063 -0.61600098,-0.8715 0.24826238,-3.2047 1.0044281,-0.48 h 0.591692 l 0.5839338,0.6983 0.095685,1.7606 0.03517,0.081 0.020689,0.4613 -0.2317116,0.9082 -0.5316954,0.6807 -0.099822,0.06 z m 0.029998,-0.094 0.2710198,-0.041 -0.3227411,-0.1427 -0.2627444,0.05 z m -0.4716985,-0.2027 0.380669,-0.07 0.099305,-0.962 -1.01373798,0.2669 z m 1.1420075,-0.089 0.5379018,-1.2517 -0.4075642,-0.3103 -0.5978986,1.353 z m -1.71507939,-0.7655 1.05511509,-0.2772 0.051721,-3.2062 -0.865815,0.4241 z m 1.15959219,-0.39 0.572038,-0.7665 -0.051722,-2.3523 H 2.1404584 Z m 1.1440758,-1.2382 -0.067238,-1.2439 -0.4592857,-0.5379 0.037757,1.653 0.2575721,-0.2255 0.1375787,0.1288 z"
         id="glyph5996-3"
         glyph-name="L" /><glyph
         id="glyph5998-1"
         glyph-name="S" /><glyph
         id="glyph6000-7"
         glyph-name="A" /><glyph
         id="glyph6002-6"
         glyph-name="O" /><glyph
         id="glyph6004-5"
         glyph-name="K" /></font>
</defs>
</svg>
